extratorrent - A Fan Made Alternative Login   |   Register
Important Information
Registrations are open now
-------------------------------------

Please click here to register with Extratorrent2 to recieve latest updates, add bookmarks and to post comments.

Friends
Friends

1) ProxyFix

Extratorrent2 > Categories > Movies > A Aa (2018) 720p UnCut Hindi Dubbed (Org) HDRip x264 AAC ESub by Full4movies torrent


Browse Movies torrents

A Aa (2018) 720p UnCut Hindi Dubbed (Org) HDRip x264 AAC ESub by Full4movies torrent


Download torrent: Download A Aa (2018) 720p UnCut Hindi Dubbed (Org) HDRip x264 AAC ESub by Full4movies torrent Magnet link Bookmark Torrent: A Aa (2018) 720p UnCut Hindi Dubbed (Org) HDRip x264 AAC ESub by Full4movies   A Aa (2018) 720p UnCut Hindi Dubbed (Org) HDRip x264 AAC ESub by Full4movies torrent
Info hash: CB662CBBEA9BF06A47281ED2A9510FAE61789C99
Category: Categories > Movies
Trackers:
View all torrent trackers >
Health:
 seeds: 23 ,  leechers: 1 |  Update >
Torrent language: Hindi Hindi
Total Size: 1.3 GB
Files List:
1    View torrent files >
Uploader:
shmasti
Torrent added: September 2, 2018, 5:14 pm
Tags: Comedy, Drama, Romance
Users rating: ---, not rated. please login to rate.

Download A Aa (2018) 720p UnCut Hindi Dubbed (Org) HDRip x264 AAC ESub by Full4movies torrent



Torrent Description



General
Complete name : A Aa (2018) 720p UnCut Hindi Dubbed (Org) HDRip x264 AAC ESub by Full4movies.mkv
Format : Matroska
Format version : Version 4 / Version 2
File size : 1.26 GiB
Duration : 2 h 24 min
Overall bit rate : 1 254 kb/s
Encoded date : UTC 2018-08-26 17:43:00
Writing application : mkvmerge v8.1.0 ('Psychedelic Postcard') 32bit
Writing library : libebml v1.3.1 + libmatroska v1.4.2

Video
ID : 1
Format : AVC
Format/Info : Advanced Video Codec
Format profile :
Format settings, CABAC : Yes
Format settings, RefFrames : 4 frames
Codec ID : V_MPEG4/ISO/AVC
Duration : 2 h 24 min
Bit rate : 1 164 kb/s
Width : 1 280 pixels
Height : 616 pixels
Display aspect ratio : 2.078
Frame rate mode : Constant
Frame rate : 25.000 FPS
Color space : YUV
Chroma subsampling : 4:2:0
Bit depth : 8 bits
Scan type : Progressive
Bits/(Pixel*Frame) : 0.059
Stream size : 1.17 GiB (93%)
Writing library : x264 core 155 r2901 7d0ff22
Language : Telugu
Default : Yes
Forced : No

Audio
ID : 2
Format : AAC
Format/Info : Advanced Audio Codec
Format profile : LC
Codec ID : A_AAC
Duration : 2 h 24 min
Bit rate : 88.0 kb/s
Channel(s) : 2 channels
Channel positions : Front: L R
Sampling rate : 44.1 kHz
Frame rate : 43.066 FPS (1024 SPF)
Compression mode : Lossy
Delay relative to video : -23 ms
Stream size : 90.9 MiB (7%)
Language : Hindi
Default : Yes
Forced : No

Screen Shoots


Download A Aa (2018) 720p UnCut Hindi Dubbed (Org) HDRip x264 AAC ESub by Full4movies torrent


Related Torrents


Comments   (please login to add your comment!)


Home - Browse Torrents

Made with love by an Extratorrent Fan!