extratorrent - A Fan Made AlternativeLogin   |   Register
Important Information
Registrations are open now
-------------------------------------

Please click here to register with Extratorrent2 to recieve latest updates, add bookmarks and to post comments.

Friends
Friends

1) ProxyFix

Extratorrent2 > Categories > Movies > A Aa (2018) 720p UNCUT Hindi Dubbed (Org - DD 2.0) HDRip x264 AC3 ESubs by Full4movies torrent


Browse Movies torrents

A Aa (2018) 720p UNCUT Hindi Dubbed (Org - DD 2.0) HDRip x264 AC3 ESubs by Full4movies torrent


Download torrent: Download A Aa (2018) 720p UNCUT Hindi Dubbed (Org - DD 2.0) HDRip x264 AC3 ESubs by Full4movies torrent Magnet link Bookmark Torrent: A Aa (2018) 720p UNCUT Hindi Dubbed (Org - DD 2.0) HDRip x264 AC3 ESubs by Full4movies   A Aa (2018) 720p UNCUT Hindi Dubbed (Org - DD 2.0) HDRip x264 AC3 ESubs by Full4movies torrent
Info hash: 466286E11DC1A4315191A4B6ED85AB4DF08AF893
Category: Categories > Movies
Trackers:
View all torrent trackers >
Health:
 seeds: 9 ,  leechers: 7 |  Update >
Torrent language: Hindi Hindi
Total Size: 1.5 GB
Files List:
1    View torrent files >
Uploader:
shmasti
Torrent added: September 26, 2018, 3:30 pm
Tags: Comedy, Drama, Romance
Users rating: ---, not rated. please login to rate.

Download A Aa (2018) 720p UNCUT Hindi Dubbed (Org - DD 2.0) HDRip x264 AC3 ESubs by Full4movies torrent



Torrent Description



General
Complete name : A Aa (2018) 720p UNCUT Hindi Dubbed (Org - DD 2.0) HDRip x264 AC3 ESubs by Full4movies.mkv
Format : Matroska
Format version : Version 4 / Version 2
File size : 1.47 GiB
Duration : 2 h 33 min
Overall bit rate : 1 366 kb/s
Encoded date : UTC 2018-08-27 13:10:46
Writing application : mkvmerge v8.1.0 ('Psychedelic Postcard') 32bit
Writing library : libebml v1.3.1 + libmatroska v1.4.2
Cover : Yes
Attachments : Covers.jpg

Video
ID : 1
Format : AVC
Format/Info : Advanced Video Codec
Format profile :
Format settings, CABAC : Yes
Format settings, RefFrames : 3 frames
Codec ID : V_MPEG4/ISO/AVC
Duration : 2 h 33 min
Bit rate : 1 142 kb/s
Nominal bit rate : 1 200 kb/s
Width : 1 280 pixels
Height : 544 pixels
Display aspect ratio : 2.35:1
Frame rate mode : Constant
Frame rate : 24.000 FPS
Original frame rate : 25.000 FPS
Color space : YUV
Chroma subsampling : 4:2:0
Bit depth : 8 bits
Scan type : Progressive
Bits/(Pixel*Frame) : 0.068
Stream size : 1.22 GiB (83%)
Writing library : x264 core 79
Language : Telugu
Default : Yes
Forced : No
Color range : Limited
Color primaries : BT.709
Transfer characteristics : BT.709
Matrix coefficients : BT.709

Audio
ID : 2
Format : AC-3
Format/Info : Audio Coding 3
Mode : Dolby Digital
Format settings, Endianness : Big
Codec ID : A_AC3
Duration : 2 h 33 min
Bit rate mode : Constant
Bit rate : 224 kb/s
Channel(s) : 2 channels
Channel positions : Front: L R
Sampling rate : 48.0 kHz
Frame rate : 31.250 FPS (1536 SPF)
Bit depth : 16 bits
Compression mode : Lossy
Stream size : 246 MiB (16%)
Language : Hindi
Service kind : Complete Main
Default : Yes
Forced : No

Text
ID : 3
Format : UTF-8
Codec ID : S_TEXT/UTF8
Codec ID/Info : UTF-8 Plain Text
Duration : 2 h 27 min
Bit rate : 46 b/s
Count of elements : 812
Stream size : 50.3 KiB (0%)
Language : English
Default : Yes
Forced : No

Screen Shoots


Download A Aa (2018) 720p UNCUT Hindi Dubbed (Org - DD 2.0) HDRip x264 AC3 ESubs by Full4movies torrent


Related Torrents


Comments   (please login to add your comment!)

squirt     hostiles 2017     gigantic     dual audio 2014     woodmancastingx fiori     assassination games     tell tale     x265 10bit hevc 720p     greys anatomy s01e04     gem hunt     cumaholicteens     x265 1080p 10bit     in secret     shaanig dual audio     brazzers 2018 new     hindi 2018     gold 2016     love gisele     step sister     bluray hevc 10bit     africa     ragini mms ddr     dosti     sherly quinn     


Home - Browse Torrents

Made with love by an Extratorrent Fan!