extratorrent - A Fan Made Alternative Login   |   Register
Important Information
Registrations are open now
-------------------------------------

Please click here to register with Extratorrent2 to recieve latest updates, add bookmarks and to post comments.

Friends
Friends

1) ProxyFix

Extratorrent2 > Categories > Movies > A Aa (2018) 1080p Hindi Dubbed Original WEBHD x264 AAC 1.9GB [MovCr] torrent


Browse Movies torrents

A Aa (2018) 1080p Hindi Dubbed Original WEBHD x264 AAC 1.9GB [MovCr] torrent


Download torrent: Download A Aa (2018) 1080p Hindi Dubbed Original WEBHD x264 AAC 1.9GB [MovCr] torrent Magnet link Bookmark Torrent: A Aa (2018) 1080p Hindi Dubbed Original WEBHD x264 AAC 1.9GB [MovCr]   A Aa (2018) 1080p Hindi Dubbed Original WEBHD x264 AAC 1.9GB [MovCr] torrent
Info hash: 097A6605F9EB7B09BC9CFD02C9251BA84DE59141
Category: Categories > Movies
Trackers:
View all torrent trackers >
Health:
 seeds: 25 ,  leechers: 9 |  Update >
Torrent language: Hindi Hindi
Total Size: 1.9 GB
Files List:
1    View torrent files >
Uploader:
ictv
Torrent added: September 2, 2018, 5:21 pm
Tags: "Comedy", "Drama", "Romance"
IMDB: http://www.imdb.com/title/tt5684466
Users rating: ---, not rated. please login to rate.

Download A Aa (2018) 1080p Hindi Dubbed Original WEBHD x264 AAC 1.9GB [MovCr] torrent



Torrent Description

Our Site www.movcr.com

A Aa (2018) 1080p Hindi Dubbed Original WEBHD x264 AAC 1.9GB [MovCr]



http://www.imdb.com/title/tt5684466/




General
Unique ID : 322178953554294232297065885585890235002 (0xF26168CF1A9E8E4DE6F16D2788D2527A)
Complete name : www.MovCr.com - A Aa (2018) 1080p Hindi Dubbed Original WEBHD x264 AAC 1.9GB [MovCr].mkv
Format : Matroska
Format version : Version 4 / Version 2
File size : 1.90 GiB
Duration : 2 h 32 min
Overall bit rate : 1 777 kb/s
Movie name : www.MovCr.com
Encoded date : UTC 2018-08-26 12:19:03
Writing application : mkvmerge v23.0.0 ('The Bride Said No') 64-bit
Writing library : libebml v1.3.6 + libmatroska v1.4.9

Video
ID : 1
Format : AVC
Format/Info : Advanced Video Codec
Format profile :
Format settings : CABAC / 3 Ref Frames
Format settings, CABAC : Yes
Format settings, RefFrames : 3 frames
Codec ID : V_MPEG4/ISO/AVC
Duration : 2 h 32 min
Bit rate : 1 650 kb/s
Width : 1 920 pixels
Height : 1 080 pixels
Display aspect ratio : 16:9
Frame rate mode : Constant
Frame rate : 24.000 FPS
Color space : YUV
Chroma subsampling : 4:2:0
Bit depth : 8 bits
Scan type : Progressive
Bits/(Pixel*Frame) : 0.033
Stream size : 1.76 GiB (93%)
Title : www.MovCr.com
Default : Yes
Forced : No
Color range : Limited
Color primaries : BT.709
Transfer characteristics : BT.709
Matrix coefficients : BT.709

Audio
ID : 2
Format : AAC
Format/Info : Advanced Audio Codec
Format profile : LC
Codec ID : A_AAC-2
Duration : 2 h 32 min
Bit rate : 126 kb/s
Channel(s) : 2 channels
Channel positions : Front: L R
Sampling rate : 44.1 kHz
Frame rate : 43.066 FPS (1024 SPF)
Compression mode : Lossy
Stream size : 137 MiB (7%)
Title : www.MovCr.com
Language : Hindi
Default : Yes
Forced : No











Download A Aa (2018) 1080p Hindi Dubbed Original WEBHD x264 AAC 1.9GB [MovCr] torrent


Related Torrents


Comments   (please login to add your comment!)

mother secret     chubby teen     pirates the     the flash 2014     young anal     you make     yari     x265 web     x angels     with pet     virtual clonedrive     vika r     vega     unseen     under hindi     two on one     tv series     tum bin 720p     trust me     trans public     toy     cheerleader     time 1080p     tight 2 porn pros     


Home - Browse Torrents

Made with love by an Extratorrent Fan!