extratorrent - A Fan Made Alternative Login   |   Register
Important Information
Registrations are open now
-------------------------------------

Please click here to register with Extratorrent2 to recieve latest updates, add bookmarks and to post comments.

Friends
Friends

1) ProxyFix

Extratorrent2 > Categories > Movies > A Aa (2018) 720p Hindi Dubbed WEB-HD x264 AAC 1.1GB [HDFilmBoss] torrent


Browse Movies torrents

A Aa (2018) 720p Hindi Dubbed WEB-HD x264 AAC 1.1GB [HDFilmBoss] torrent


Download torrent: Download A Aa (2018) 720p Hindi Dubbed WEB-HD x264 AAC 1.1GB [HDFilmBoss] torrent Magnet link Bookmark Torrent: A Aa (2018) 720p Hindi Dubbed WEB-HD x264 AAC 1.1GB [HDFilmBoss]   A Aa (2018) 720p Hindi Dubbed WEB-HD x264 AAC 1.1GB [HDFilmBoss] torrent
Info hash: 8C95E7120EE109472356039E3002A550B69BDC15
Category: Categories > Movies
Trackers:
View all torrent trackers >
Health:
 seeds: 2 ,  leechers: 1 |  Update >
Torrent language: Hindi Hindi
Total Size: 1.1 GB
Files List:
1    View torrent files >
Uploader:
HDFilmBoss
Torrent added: August 26, 2018, 5:22 pm
Users rating: ---, not rated. please login to rate.

Download A Aa (2018) 720p Hindi Dubbed WEB-HD x264 AAC 1.1GB [HDFilmBoss] torrent



Torrent Description

http://hdfilmboss.net/



http://hdfilmboss.net/

General
Format : MPEG-4
Format profile : Base Media / Version 2
Codec ID : mp42 (isom/mp42)
File size : 1.14 GiB
Duration : 2 h 32 min
Overall bit rate mode : Variable
Overall bit rate : 1 071 kb/s
Encoded date : UTC 2018-08-26 01:09:51
Tagged date : UTC 2018-08-26 01:09:51
gsst : 0
gstd : 9159436

Video
ID : 1
Format : AVC
Format/Info : Advanced Video Codec
Format profile :
Format settings : CABAC / 3 Ref Frames
Format settings, CABAC : Yes
Format settings, RefFrames : 3 frames
Codec ID : avc1
Codec ID/Info : Advanced Video Coding
Duration : 2 h 32 min
Bit rate : 941 kb/s
Width : 1 280 pixels
Height : 720 pixels
Display aspect ratio : 16:9
Frame rate mode : Constant
Frame rate : 24.000 FPS
Color space : YUV
Chroma subsampling : 4:2:0
Bit depth : 8 bits
Scan type : Progressive
Bits/(Pixel*Frame) : 0.043
Stream size : 1.00 GiB (88%)
Title :HDFilmBoss.Net
Encoded date : UTC 2018-08-26 01:09:51
Tagged date : UTC 2018-08-26 01:09:51
Color range : Limited
Color primaries : BT.709
Transfer characteristics : BT.709
Matrix coefficients : BT.709

Audio
ID : 2
Format : AAC
Format/Info : Advanced Audio Codec
Format profile : LC
Codec ID : mp4a-40-2
Duration : 2 h 32 min
Bit rate mode : Variable
Bit rate : 126 kb/s
Channel(s) : 2 channels
Channel positions : Front: L R
Sampling rate : 44.1 kHz
Frame rate : 43.066 FPS (1024 SPF)
Compression mode : Lossy
Stream size : 137 MiB (12%)
Title :HDFilmBoss.Net
Language : English
Encoded date : UTC 2018-08-26 01:09:51



http://hdfilmboss.net/



Download A Aa (2018) 720p Hindi Dubbed WEB-HD x264 AAC 1.1GB [HDFilmBoss] torrent


Related Torrents


Comments   (please login to add your comment!)

black rain     green zone 2010     hotel beau     share my bf     genius 2018     s x265     booty xxx     hdrip xvid     marie mccray real life     maria alzate     piss drink     gang bang me     neighbor affair 32     unbelievable     barely legal 56     big titty mamas     john prime     blacked i only want sex part 2     erin     cory chase clips4sale     ishq     black water 2018 720p     the chef     dual hindi 720p     


Home - Browse Torrents

Made with love by an Extratorrent Fan!